(Messaggi recenti) • 1 messaggio • • •

Seguici anche su HD-Italia.co


Film in alta definizione gratis su EASYBYTEZ: HDitalia

Ultime News 1080p EasyBytez (Clicca sulla locandina)



Risingshare.online e' il nuovo dominio

Grazie alla gentilezza di alcuni utenti la somma richiesta per rinnovare il server e' stata raggiunta. Fino a dicembre non avremo bisogno di altri soldi, e solo in quella data riapriremo le donazioni.
Grazie a tutti quelli che hanno contribuito, chi piu', chi meno.
Risingshare

Per visualizzare i Link è necessario registrarsi

Risingshare.online e' il nuovo dominio

Thor Ragnarok (2017) VU Blu-ray 2160p UHD HDR10 HEVC iTA DD 5.1 ENG TrueHD 7.1

4K UltraHD 3840

Thor Ragnarok (2017) VU Blu-ray 2160p UHD HDR10 HEVC iTA DD 5.1 ENG TrueHD 7.1

Messaggioda FAST » 25/02/2018, 14:14

Thor Ragnarok (2017) VU Blu-ray 2160p UHD HDR10 HEVC iTA DD 5.1 ENG TrueHD 7.1

Immagine


Scheda film:
DATA USCITA: 25 ottobre 2017
GENERE: Azione, Fantasy, Avventura, Commedia
ANNO: 2017
REGIA: Taika Waititi
ATTORI: Chris Hemsworth, Tom Hiddleston, Jaimie Alexander, Mark Ruffalo, Idris Elba, Cate Blanchett, Benedict Cumberbatch, Karl Urban, Anthony Hopkins, Tessa Thompson, Ray Stevenson, Sam Neill, Jeff Goldblum, Taika Waititi, Stan Lee, Rachel House, Zachary Levi, Luke Hemsworth, Jasper Bagg
PAESE: USA
DURATA: 130 Min
DISTRIBUZIONE: Walt Disney Studios Motion Pictures Italia


Trama:
Thor viene imprigionato dall'altra parte dell'universo senza il suo potente martello e si ritrova impegnato in una corsa contro il tempo per tornare ad Asgard e fermare la distruzione del pianeta per mano di un nuovo nemico, la spietata Hela. Prima di riuscirci, dovrà però sopravvivere a una gara tra gladiatori in cui sarà contrapposto all'ex alleato Hulk.


Screen:
Immagine Immagine Immagine



Thor Ragnarok (2017) VU Blu-ray 2160p UHD HDR10 HEVC iTA DD 5.1 ENG TrueHD 7.1 CYBER

Nome Versione: CYBER
Fonte Video: Bluray (UPSCALED 4K)
Fonte Audio: iTunes
Tracce Audio: AC3 iTA | TrueHD ENG
Sub Forced: Si



Spoiler: Visualizza
General
Unique ID : 175949699665836194048795189780741688532 (0x845EADF5A0CBA1BCB2B1335DBE210CD4)
Complete name : D:\Thor.Ragnarok.2017.VU.Blu-ray.2160p.UHD.HDR10.HEVC.iTA.DD.5.1.ENG.TrueHD.7.1-CYBER.mkv
Format : Matroska
Format version : Version 2
File size : 49.6 GiB
Duration : 2 h 10 min
Overall bit rate mode : Variable
Overall bit rate : 54.4 Mb/s
Encoded date : UTC 2018-02-23 13:16:26
Writing application : mkvmerge v15.0.0 ('Duel with the Devil') 64-bit
Writing library : libebml v1.3.5 + libmatroska v1.4.5
Attachments : F1_T2_Video - .rar

Video
ID : 1
Format : HEVC
Format/Info : High Efficiency Video Coding
Format profile : Main 10@L5.1@High
Codec ID : V_MPEGH/ISO/HEVC
Duration : 2 h 10 min
Bit rate : 49.2 Mb/s
Width : 3 840 pixels
Height : 2 160 pixels
Display aspect ratio : 16:9
Frame rate mode : Constant
Frame rate : 23.976 (24000/1001) FPS
Color space : YUV
Chroma subsampling : 4:2:0 (Type 2)
Bit depth : 10 bits
Bits/(Pixel*Frame) : 0.248
Stream size : 44.9 GiB (91%)
Writing library : ATEME Titan File 3.8.13 (4.8.13.0)
Language : English
Default : Yes
Forced : No
Color range : Limited
Color primaries : BT.2020
Transfer characteristics : PQ
Matrix coefficients : BT.2020 non-constant
Mastering display color primaries : Display P3
Mastering display luminance : min: 0.0000 cd/m2, max: 1000 cd/m2

Audio #1
ID : 2
Format : AC-3
Format/Info : Audio Coding 3
Codec ID : A_AC3
Duration : 2 h 10 min
Bit rate mode : Constant
Bit rate : 384 kb/s
Channel(s) : 6 channels
Channel positions : Front: L C R, Side: L R, LFE
Sampling rate : 48.0 kHz
Frame rate : 31.250 FPS (1536 SPF)
Bit depth : 16 bits
Compression mode : Lossy
Stream size : 358 MiB (1%)
Title : iTunes RESYNC
Language : Italian
Service kind : Complete Main
Default : Yes
Forced : No

Audio #2
ID : 3
Format : TrueHD
Format profile : TrueHD+Atmos / TrueHD
Codec ID : A_TRUEHD
Duration : 2 h 10 min
Bit rate mode : Variable
Bit rate : 4 051 kb/s
Maximum bit rate : 5 889 kb/s
Channel(s) : Object Based / 8 channels
Channel positions : Object Based / Front: L C R, Side: L R, Back: L R, LFE
Sampling rate : / 48.0 kHz
Frame rate : 1 200.000 FPS (40 SPF)
Compression mode : Lossless
Stream size : 3.69 GiB (7%)
Language : English
Default : No
Forced : No

Audio #3
ID : 4
Format : AC-3
Format/Info : Audio Coding 3
Codec ID : A_AC3
Duration : 2 h 10 min
Bit rate mode : Constant
Bit rate : 640 kb/s
Channel(s) : 6 channels
Channel positions : Front: L C R, Side: L R, LFE
Sampling rate : 48.0 kHz
Frame rate : 31.250 FPS (1536 SPF)
Bit depth : 16 bits
Compression mode : Lossy
Stream size : 597 MiB (1%)
Language : English
Service kind : Complete Main
Default : No
Forced : No

Text #1
ID : 5
Format : UTF-8
Codec ID : S_TEXT/UTF8
Codec ID/Info : UTF-8 Plain Text
Duration : 3 s 754 ms
Bit rate : 89 b/s
Count of elements : 1
Stream size : 42.0 Bytes (0%)
Title : FORCED
Language : Italian
Default : Yes
Forced : No

Text #2
ID : 6
Format : UTF-8
Codec ID : S_TEXT/UTF8
Codec ID/Info : UTF-8 Plain Text
Duration : 2 h 9 min
Bit rate : 50 b/s
Count of elements : 1565
Stream size : 48.0 KiB (0%)
Title : REGOLARI
Language : Italian
Default : No
Forced : No

Text #3
ID : 7
Format : UTF-8
Codec ID : S_TEXT/UTF8
Codec ID/Info : UTF-8 Plain Text
Duration : 2 h 10 min
Bit rate : 57 b/s
Count of elements : 2081
Stream size : 55.3 KiB (0%)
Title : NON UDENTI
Language : English
Default : No
Forced : No

Menu
00:00:00.000 : en:00:00:00.000
00:06:20.672 : en:00:06:20.672
00:14:11.642 : en:00:14:11.642
00:22:12.873 : en:00:22:12.873
00:26:43.060 : en:00:26:43.060
00:31:29.721 : en:00:31:29.721
00:35:03.935 : en:00:35:03.935
00:42:49.734 : en:00:42:49.734
00:48:31.534 : en:00:48:31.534
00:59:38.784 : en:00:59:38.784
01:07:57.907 : en:01:07:57.907
01:17:30.604 : en:01:17:30.604
01:27:25.323 : en:01:27:25.323
01:36:08.721 : en:01:36:08.721
01:42:35.733 : en:01:42:35.733
01:49:19.887 : en:01:49:19.887
01:54:57.599 : en:01:54:57.599
02:00:37.522 : en:02:00:37.522




Download:


Immagine


Codice: Seleziona tutto
Devi eseguire il Login o Registrati, per vedere il contenuto
RANDOM_AVATAR
FAST
 
Messaggi: 4823
Iscritto il: 29/03/2015, 12:58

Torna a 4K UltraHD 3840

Chi c’è in linea

Visitano il forum: Nessuno e 53 ospiti

cron